<?xml version="1.0" standalone="no"?>
<!DOCTYPE svg PUBLIC "-//W3C//DTD SVG 1.1//EN" "http://www.w3.org/Graphics/SVG/1.1/DTD/svg11.dtd" >
<svg xmlns="http://www.w3.org/2000/svg">
<metadata>
This is a custom SVG webfont generated by Font Squirrel.
Copyright   : c Dutch Design AlbertJan Pool 1995 Published by FontShop International FontFont release 15
</metadata>
<defs>
<font id="DINMedium" horiz-adv-x="1091" >
<font-face units-per-em="2048" ascent="1638" descent="-410" />
<missing-glyph horiz-adv-x="491" />
<glyph unicode=" "  horiz-adv-x="491" />
<glyph unicode="&#x09;" horiz-adv-x="491" />
<glyph unicode="&#xa0;" horiz-adv-x="491" />
<glyph unicode="!" horiz-adv-x="679" d="M248 1458h254l-45 -1024h-164zM260 0v223h229v-223h-229z" />
<glyph unicode="&#x22;" horiz-adv-x="909" d="M160 1067v391h207v-391h-207zM543 1067v391h207v-391h-207z" />
<glyph unicode="#" horiz-adv-x="1376" d="M139 426v192h193l41 254h-166v193h194l64 401h219l-63 -401h278l64 401h217l-64 -401h160v-193h-189l-40 -254h161v-192h-192l-68 -426h-217l68 426h-281l-65 -426h-220l68 426h-162zM549 618h280l39 254h-278z" />
<glyph unicode="$" horiz-adv-x="1245" d="M61 180l148 146q129 -129 338 -140v455l-53 6q-172 20 -275 117q-109 102 -108.5 278.5t112 291t305.5 132.5v185h168v-183q233 -14 391 -163l-141 -140q-104 98 -268 111v-442l70 -11q182 -29 272 -108q119 -104 119 -299q0 -180 -121 -292t-322 -130v-227h-168v221 q-289 12 -467 192zM326 1051q0 -86 55 -136q59 -53 166 -67v426q-104 -10 -162.5 -70.5t-58.5 -152.5zM678 190q115 10 178.5 67.5t63.5 152.5q0 100 -58 151q-10 8 -21.5 16.5t-20.5 13.5t-23.5 9t-20.5 7t-24.5 6t-23.5 4t-25.5 4.5t-24.5 3.5v-435z" />
<glyph unicode="%" horiz-adv-x="1724" d="M119 985v207q0 129 82 205t204.5 76t204.5 -76t82 -205v-207q0 -129 -82 -203.5t-204.5 -74.5t-204.5 74.5t-82 203.5zM276 991q0 -145 129.5 -145t129.5 145v195q0 147 -129.5 147t-129.5 -147v-195zM434 0l688 1458h166l-686 -1458h-168zM1032 266v207q0 129 82 205 t205 76t205 -76t82 -205v-207q0 -129 -82 -204.5t-205 -75.5t-205 75.5t-82 204.5zM1190 272q0 -147 129 -147t129 147v195q0 147 -129 147t-129 -147v-195z" />
<glyph unicode="&#x26;" horiz-adv-x="1495" d="M139 422q0 137 77 230t212 182q-45 51 -70.5 86.5t-53.5 99t-28 127.5q0 141 98.5 232t258.5 91q154 0 250 -92t96 -233q0 -152 -156 -258q-72 -49 -106 -74l307 -367q76 106 78 293h201q-10 -291 -146 -448l244 -291h-268l-119 143q-178 -156 -403.5 -155.5t-348.5 117 t-123 317.5zM346 426q0 -109 75 -178.5t189 -69.5q152 0 279 113l-346 411q-66 -45 -100.5 -75.5t-65.5 -84t-31 -116.5zM489 1145q0 -70 113 -201l70 47q106 72 106 152q0 61 -41 103t-104 42q-66 0 -105 -40t-39 -103z" />
<glyph unicode="'" horiz-adv-x="526" d="M160 1067v391h207v-391h-207z" />
<glyph unicode="(" horiz-adv-x="649" d="M176 240v979q0 154 47 237q35 63 166 195l141 -142q-6 -6 -26.5 -25.5t-27.5 -27.5t-20.5 -22.5t-22.5 -28.5t-17 -31q-31 -59 -31 -168v-954q0 -109 31 -168q8 -16 17 -30.5t22.5 -29t20.5 -22.5t27.5 -27.5t26.5 -25.5l-141 -142q-131 131 -166 195q-47 84 -47 238z " />
<glyph unicode=")" horiz-adv-x="649" d="M119 -49q86 86 112 135q31 57 31 166v954q0 109 -31 166q-27 49 -112 135l143 144q125 -125 164 -195q49 -86 49 -237v-979q0 -152 -49 -238q-39 -70 -164 -195z" />
<glyph unicode="*" horiz-adv-x="993" d="M125 954l235 125l-235 127l76 133l227 -141l-8 266h153l-8 -266l228 141l75 -133l-235 -127l235 -125l-75 -133l-228 142l8 -269h-153l8 269l-227 -142z" />
<glyph unicode="+" d="M104 461v194h345v342h194v-342h344v-194h-344v-344h-194v344h-345z" />
<glyph unicode="," horiz-adv-x="557" d="M160 238h237v-361l-237 -194v555z" />
<glyph unicode="-" horiz-adv-x="872" d="M137 471v195h598v-195h-598z" />
<glyph unicode="." horiz-adv-x="569" d="M160 0v250h250v-250h-250z" />
<glyph unicode="/" horiz-adv-x="778" d="M0 -152l584 1762h200l-583 -1762h-201z" />
<glyph unicode="0" d="M125 406v647q0 190 121 303.5t299 113.5q180 0 301 -113.5t121 -303.5v-647q0 -190 -121 -304t-301 -114q-178 0 -299 114t-121 304zM334 412q0 -109 56 -173.5t154.5 -64.5t156 65.5t57.5 172.5v635q0 106 -57.5 171.5t-156 65.5t-154.5 -64.5t-56 -172.5v-635z" />
<glyph unicode="1" d="M233 981v231l285 246h209v-1458h-209v1231z" />
<glyph unicode="2" d="M129 0v186l561 682q78 94 78 194.5t-56.5 161t-156.5 60.5q-92 0 -153.5 -55t-61.5 -170h-209q0 184 119 297.5t305 113.5q188 0 305 -111.5t117 -297.5q0 -90 -32 -156.5t-105 -159.5l-457 -559h594v-186h-848z" />
<glyph unicode="3" d="M86 395h209q6 -111 72.5 -166t164.5 -55q104 0 171 64.5t67 177t-61.5 176t-182.5 63.5h-34v183h34q111 0 166.5 59t55.5 162q0 106 -61.5 165.5t-154.5 59.5q-94 0 -152 -56.5t-67 -152.5h-209q8 182 129 290t299 108q186 0 305 -114t119 -294q0 -221 -182 -311 q205 -90 205 -344q0 -203 -127 -313.5t-320 -110.5q-188 0 -314 103t-132 306z" />
<glyph unicode="4" d="M72 219v195l514 1044h225l-512 -1044h363v340h202v-340h156v-195h-156v-219h-202v219h-590z" />
<glyph unicode="5" d="M129 377h209q27 -203 213 -203q94 0 151 57q70 70 70 256q0 305 -213 306q-166 0 -207 -131h-190v796h786v-186h-598v-385q80 84 242 84q168 0 262 -94q127 -127 127 -390q0 -133 -24.5 -223t-98.5 -164q-115 -115 -307 -114q-199 0 -311 112q-97 97 -111 279z" />
<glyph unicode="6" d="M115 424q0 141 108 358l332 676h223l-313 -627q53 23 129 23q162 0 272.5 -116.5t110.5 -305.5q0 -201 -120 -322.5t-310 -121.5q-193 0 -312.5 117.5t-119.5 318.5zM324 428q0 -117 61 -185.5t160 -68.5q100 0 161.5 69.5t61.5 184.5q0 111 -60.5 181.5t-162.5 70.5 q-100 0 -160.5 -67.5t-60.5 -184.5z" />
<glyph unicode="7" d="M129 1042v416h868v-186l-487 -1272h-225l489 1272h-444v-230h-201z" />
<glyph unicode="8" d="M96 412q0 221 201 342q-176 106 -176 313q0 180 120.5 291.5t303 111.5t304.5 -111.5t122 -291.5q0 -207 -176 -313q201 -121 200 -342q0 -193 -129 -308.5t-321.5 -115.5t-320.5 115.5t-128 308.5zM305 415.5q0 -102.5 69.5 -172t170 -69.5t170 69.5t69.5 172t-69.5 173 t-170 70.5t-170 -70.5t-69.5 -173zM330 1061q0 -96 60.5 -158.5t154.5 -62.5t155.5 62.5t61.5 158.5t-61.5 159.5t-155.5 63.5t-154.5 -63.5t-60.5 -159.5z" />
<glyph unicode="9" d="M115 1026q0 201 119.5 322.5t310.5 121.5q193 0 312.5 -117.5t119.5 -318.5q0 -141 -109 -358l-331 -676h-224l314 627q-53 -23 -131 -23q-162 0 -271.5 117t-109.5 305zM324 1030q0 -111 59 -181.5t162 -70.5q100 0 161.5 67.5t61.5 184.5q0 115 -61.5 184.5 t-161.5 69.5q-98 0 -159.5 -68.5t-61.5 -185.5z" />
<glyph unicode=":" horiz-adv-x="620" d="M213 0v250h248v-250h-248zM213 584v250h248v-250h-248z" />
<glyph unicode=";" horiz-adv-x="620" d="M213 584v250h248v-250h-248zM217 238h238v-361l-238 -194v555z" />
<glyph unicode="&#x3c;" horiz-adv-x="2103" d="M106 567l803 803h269l-707 -702h1524v-199h-1524l707 -702h-269z" />
<glyph unicode="=" d="M104 272v195h883v-195h-883zM104 670v194h883v-194h-883z" />
<glyph unicode="&#x3e;" horiz-adv-x="2103" d="M106 469v199h1526l-706 702h268l803 -803l-803 -800h-268l706 702h-1526z" />
<glyph unicode="?" horiz-adv-x="1046" d="M145 1077q0 172 117 282.5t291 110.5q172 0 291 -107.5t119 -283.5q0 -117 -99 -252l-157 -221q-37 -51 -37 -110v-62h-209v72q0 111 69 203l160 215q63 84 64 155q0 88 -56.5 146.5t-144.5 58.5q-92 0 -145.5 -60.5t-53.5 -146.5h-209zM449 0v223h231v-223h-231z" />
<glyph unicode="@" horiz-adv-x="1507" d="M131 334v651q0 236 121 358q121 121 352 121h299q229 0 350 -121q123 -123 123 -358v-989l-196 4v102q-98 -117 -260 -116q-166 0 -269 114q-55 63 -73.5 146.5t-18.5 232.5q0 145 17.5 229.5t70.5 147.5q96 117 271 117q160 0 258 -115v125q0 143 -76 221 q-76 76 -217 76h-258q-139 0 -215 -76t-76 -221v-639q0 -86 21.5 -132t80.5 -93l-143 -144q-92 76 -127 151t-35 208zM760 479.5q0 -151.5 44 -233.5t162.5 -82t164 83t45.5 232.5t-45.5 233.5t-164 84t-162.5 -83t-44 -234.5z" />
<glyph unicode="A" horiz-adv-x="1280" d="M16 0l535 1458h178l535 -1458h-236l-100 293h-576l-100 -293h-236zM418 481h448l-221 647z" />
<glyph unicode="B" horiz-adv-x="1357" d="M190 0v1458h568q203 0 321.5 -107.5t118.5 -291.5q0 -111 -58.5 -194t-138.5 -115q94 -37 157 -123t63 -215q0 -197 -121 -304.5t-320 -107.5h-590zM412 199h348q113 0 176 61.5t63 161.5q0 98 -63.5 159.5t-175.5 61.5h-348v-444zM412 842h327q109 0 173.5 54 t64.5 154.5t-64.5 155t-173.5 54.5h-327v-418z" />
<glyph unicode="C" horiz-adv-x="1286" d="M137 729q0 111 1 158t7.5 125t21.5 118.5t42 91t70 93.5q156 156 383 155q205 0 344 -116.5t176 -331.5h-226q-27 115 -102.5 182.5t-191.5 67.5q-133 0 -216 -88q-53 -59 -70.5 -147.5t-17.5 -307.5t17.5 -307t70.5 -148q82 -88 216 -88q117 0 193.5 68t102.5 182h224 q-37 -213 -177.5 -330.5t-342.5 -117.5q-227 0 -383 155q-43 43 -70 93.5t-42 91.5t-21.5 118.5t-7.5 124.5t-1 158z" />
<glyph unicode="D" horiz-adv-x="1363" d="M190 0v1458h512q240 0 377 -137q70 -70 105 -170t39 -171t4 -204v-37q0 -258 -23 -358q-33 -152 -125 -244q-137 -137 -377 -137h-512zM412 199h268q158 0 248 98q51 57 64.5 156.5t13.5 285.5q0 123 -3.5 185.5t-20.5 130t-54 106.5q-90 98 -248 99h-268v-1061z" />
<glyph unicode="E" horiz-adv-x="1234" d="M190 0v1458h932v-198h-710v-426h606v-197h-606v-438h710v-199h-932z" />
<glyph unicode="F" horiz-adv-x="1198" d="M190 0v1458h932v-198h-710v-445h606v-199h-606v-616h-222z" />
<glyph unicode="G" horiz-adv-x="1329" d="M137 729q0 111 1 158t7.5 125t21.5 118.5t42 91t70 93.5q156 156 383 155q221 0 359 -126.5t171 -325.5h-223q-29 121 -108 187.5t-199 66.5q-131 0 -216 -90q-53 -59 -70.5 -146.5t-17.5 -306.5t17.5 -307t70.5 -148q82 -88 216 -88q147 0 237 103q74 86 74 229v82h-311 v188h532v-223q0 -272 -131 -411q-158 -166 -401 -166q-227 0 -383 155q-43 43 -70 93.5t-42 91.5t-21.5 118.5t-7.5 124.5t-1 158z" />
<glyph unicode="H" horiz-adv-x="1415" d="M190 0v1458h222v-622h592v622h221v-1458h-221v637h-592v-637h-222z" />
<glyph unicode="I" horiz-adv-x="602" d="M190 0v1458h222v-1458h-222z" />
<glyph unicode="J" horiz-adv-x="1036" d="M27 129l147 145q45 -45 89 -66.5t118 -21.5q125 0 194.5 75t69.5 216v981h221v-997q0 -219 -138 -346t-347 -127q-213 0 -354 141z" />
<glyph unicode="K" horiz-adv-x="1347" d="M190 0v1458h222v-733l596 733h270l-473 -571l522 -887h-260l-410 719l-245 -295v-424h-222z" />
<glyph unicode="L" horiz-adv-x="1175" d="M190 0v1458h222v-1259h702v-199h-924z" />
<glyph unicode="M" horiz-adv-x="1665" d="M190 0v1458h222l426 -907l417 907h222v-1458h-222v975l-335 -711h-164l-344 711v-975h-222z" />
<glyph unicode="N" horiz-adv-x="1478" d="M190 0v1458h203l674 -1024v1024h221v-1458h-203l-673 1026v-1026h-222z" />
<glyph unicode="O" horiz-adv-x="1323" d="M137 729q0 111 1 158t7.5 125t21.5 118.5t42 91t70 93.5q156 156 383 155q229 0 385 -155q43 -43 69.5 -93.5t40.5 -90t20.5 -120.5t7.5 -123t1 -159t-1 -159t-7.5 -122.5t-20.5 -120.5t-40.5 -90.5t-69.5 -93.5q-156 -156 -385 -155q-227 0 -383 155q-43 43 -70 93.5 t-42 91.5t-21.5 118.5t-7.5 124.5t-1 158zM358 729q0 -221 16.5 -308t69.5 -145q84 -90 217.5 -90t217.5 90q53 57 69.5 144.5t16.5 308.5t-16.5 308t-69.5 145q-84 90 -217.5 90t-217.5 -90q-53 -57 -69.5 -144.5t-16.5 -308.5z" />
<glyph unicode="P" horiz-adv-x="1288" d="M190 0v1458h553q211 0 339 -125t128 -317.5t-128 -317.5t-339 -125h-331v-573h-222zM412 774h319q117 0 187.5 64.5t70.5 177.5q0 115 -70.5 179.5t-187.5 64.5h-319v-486z" />
<glyph unicode="Q" horiz-adv-x="1323" d="M137 729q0 111 1 158t7.5 125t21.5 118.5t42 91t70 93.5q156 156 383 155q229 0 385 -155q43 -43 69.5 -93.5t40.5 -90t20.5 -120.5t7.5 -123t1 -159q0 -160 -3 -227.5t-24.5 -154.5t-66.5 -148l143 -142l-123 -123l-145 146q-131 -92 -305 -92q-227 0 -383 155 q-43 43 -70 93.5t-42 91.5t-21.5 118.5t-7.5 124.5t-1 158zM358 729q0 -221 16.5 -308t69.5 -145q84 -90 218 -90q84 0 149 47l-154 154l123 123l142 -141q43 86 43 360q0 221 -16.5 308t-69.5 145q-84 90 -217.5 90t-217.5 -90q-53 -57 -69.5 -144.5t-16.5 -308.5z" />
<glyph unicode="R" horiz-adv-x="1341" d="M190 0v1458h566q205 0 328.5 -118.5t123.5 -307.5q0 -150 -80.5 -251t-209.5 -136l335 -645h-258l-307 614h-276v-614h-222zM412 803h327q113 0 180.5 60.5t67.5 167t-67.5 168t-180.5 61.5h-327v-457z" />
<glyph unicode="S" horiz-adv-x="1208" d="M61 180l148 146q139 -139 373 -140q143 0 222 58.5t79 165.5q0 100 -58 151q-49 45 -159 62l-172 24q-178 25 -277 117q-106 100 -106 278q0 193 131 310.5t356 117.5q274 0 453 -165l-142 -140q-119 113 -317 113q-125 0 -195.5 -63.5t-70.5 -163.5q0 -86 55 -136 q57 -51 164 -67l166 -25q182 -29 272 -108q119 -104 119 -299q0 -199 -145.5 -313.5t-378.5 -114.5q-168 0 -291.5 44t-225.5 148z" />
<glyph unicode="T" horiz-adv-x="1146" d="M61 1260v198h1024v-198h-401v-1260h-221v1260h-402z" />
<glyph unicode="U" horiz-adv-x="1382" d="M168 492v966h221v-956q0 -145 82 -230.5t219 -85.5t220 85t83 231v956h221v-966q0 -223 -149.5 -363.5t-374.5 -140.5t-373.5 140.5t-148.5 363.5z" />
<glyph unicode="V" horiz-adv-x="1155" d="M10 1458h230l335 -1061l336 1061h234l-483 -1458h-173z" />
<glyph unicode="W" horiz-adv-x="1783" d="M23 1458h233l254 -1042l293 1042h178l293 -1042l254 1042h233l-381 -1458h-192l-297 1022l-295 -1022h-193z" />
<glyph unicode="X" horiz-adv-x="1183" d="M20 0l451 748l-422 710h254l287 -522l289 522h254l-422 -710l452 -748h-256l-317 559l-316 -559h-254z" />
<glyph unicode="Y" horiz-adv-x="1114" d="M10 1458h242l305 -641l305 641h242l-436 -858v-600h-222v600z" />
<glyph unicode="Z" horiz-adv-x="1130" d="M98 0v190l674 1070h-645v198h905v-180l-678 -1079h678v-199h-934z" />
<glyph unicode="[" horiz-adv-x="710" d="M176 -152v1762h447v-187h-238v-1388h238v-187h-447z" />
<glyph unicode="\" horiz-adv-x="778" d="M0 1593h201l577 -1745h-200z" />
<glyph unicode="]" horiz-adv-x="710" d="M88 33h242v1392h-242v185h447v-1762h-447v185z" />
<glyph unicode="^" horiz-adv-x="1169" d="M137 821l352 652h191l350 -652h-217l-229 424l-230 -424h-217z" />
<glyph unicode="_" horiz-adv-x="1169" d="M0 -209h1169v-143h-1169v143z" />
<glyph unicode="`" horiz-adv-x="1024" d="M233 1559h232l153 -332h-157z" />
<glyph unicode="a" horiz-adv-x="1085" d="M88 305q0 135 92 217t266 82h275v74q0 100 -54.5 147t-172.5 47q-86 0 -135.5 -22.5t-92.5 -77.5l-137 129q72 84 156 117t217 33q428 0 428 -357v-694h-205v94q-57 -57 -119.5 -81.5t-156.5 -24.5q-184 0 -279 94q-82 86 -82 223zM291 309q0 -147 190 -147q133 0 195 59 q45 45 45 154v84h-244q-186 0 -186 -150z" />
<glyph unicode="b" horiz-adv-x="1132" d="M166 0v1458h209v-524q98 117 272 117q160 0 252 -93q117 -117 117 -438q0 -324 -117 -440q-92 -92 -254 -92q-172 0 -274 123v-111h-205zM375 520q0 -78 8 -133t29.5 -107.5t66.5 -79t112.5 -26.5t113 26.5t67 79t28.5 107.5t7 133t-7 133.5t-28.5 106.5t-67 77.5 t-112.5 26.5q-90 0 -140.5 -51t-63.5 -119t-13 -174z" />
<glyph unicode="c" horiz-adv-x="993" d="M113 520.5q0 141.5 38.5 246.5t105.5 165.5t146.5 89.5t171.5 29q205 0 343 -146l-144 -139q-49 53 -93 75.5t-106 22.5q-123 0 -192 -92q-61 -78 -61 -252q0 -176 61 -254q70 -92 192 -92q61 0 105.5 22.5t93.5 75.5l144 -137q-139 -147 -343 -147q-92 0 -171.5 29.5 t-146.5 90t-105.5 166t-38.5 247z" />
<glyph unicode="d" horiz-adv-x="1132" d="M117 520q0 322 116 438q92 92 252 93q174 0 273 -117v524h209v-1458h-205v111q-102 -123 -275 -123q-162 0 -254 92q-116 116 -116 440zM326 520q0 -78 8 -133t29.5 -107.5t66.5 -79t112.5 -26.5t112.5 26.5t66.5 79t29 107.5t7.5 133t-7.5 133.5t-29 106.5t-66.5 77.5 t-112 26.5q-90 0 -140.5 -51t-63.5 -119t-13 -174z" />
<glyph unicode="e" horiz-adv-x="1103" d="M113 520q0 250 118.5 390.5t321.5 140.5q205 0 322.5 -137.5t117.5 -362.5v-92h-674q0 -135 69 -213t196 -78q84 0 139 24.5t113 81.5l133 -124q-84 -84 -171 -123t-218 -39q-213 0 -340 126.5t-127 405.5zM319 604h467q-2 82 -28 141q-55 131 -205 132q-72 0 -127 -36 t-80 -96q-25 -55 -27 -141z" />
<glyph unicode="f" horiz-adv-x="671" d="M80 860v160h119v160q0 121 73.5 204.5t210.5 83.5h131v-178h-92q-115 0 -114 -121v-149h206v-160h-206v-860h-209v860h-119z" />
<glyph unicode="g" horiz-adv-x="1124" d="M117 538.5q0 151.5 23.5 252t92.5 170.5q90 90 250 90q170 0 273 -123v110h202v-1032q0 -195 -119.5 -316.5t-324.5 -121.5q-119 0 -202 30.5t-165 106.5l134 133q98 -92 225 -92q125 0 184.5 75t59.5 189v133q-100 -119 -269 -118q-156 0 -248 92q-70 70 -93 170 t-23 251.5zM326 538.5q0 -69.5 7 -120.5t27.5 -101.5t65.5 -77t112.5 -26.5t111.5 26.5t64.5 77t28 100.5t7.5 121.5t-7.5 122t-28 100.5t-64.5 76.5t-111.5 26.5t-112.5 -26.5t-65.5 -76.5t-27.5 -101.5t-7 -121z" />
<glyph unicode="h" horiz-adv-x="1159" d="M166 0v1458h209v-524q109 117 268 117q170 0 265.5 -104.5t95.5 -276.5v-670h-209v637q0 113 -58.5 170t-150.5 57t-151.5 -58t-59.5 -169v-637h-209z" />
<glyph unicode="i" horiz-adv-x="540" d="M160 1243v221h221v-221h-221zM166 0v1038h209v-1038h-209z" />
<glyph unicode="j" horiz-adv-x="540" d="M-39 -246h92q61 0 87 30t26 91v1163h209v-1175q0 -125 -72 -206t-213 -81h-129v178zM160 1243v221h221v-221h-221z" />
<glyph unicode="k" horiz-adv-x="1122" d="M166 0v1458h209v-899l403 479h254l-360 -407l405 -631h-258l-291 479l-153 -174v-305h-209z" />
<glyph unicode="l" horiz-adv-x="636" d="M160 287v1171h209v-1159q0 -61 25.5 -91t86.5 -30h92v-178h-129q-141 0 -212.5 81t-71.5 206z" />
<glyph unicode="m" horiz-adv-x="1796" d="M166 0v1038h205v-104q106 117 276 117q197 0 295 -152q125 152 326 152q164 0 262 -95q111 -109 110 -292v-664h-208v633q0 117 -58.5 174t-150.5 57q-90 0 -152.5 -57t-62.5 -164v-643h-209v633q0 117 -57.5 174t-151.5 57t-154.5 -58t-60.5 -173v-633h-209z" />
<glyph unicode="n" horiz-adv-x="1163" d="M166 0v1038h205v-104q109 117 276 117q158 0 256 -95q104 -102 105 -292v-664h-209v633q0 117 -57.5 174t-151.5 57t-154.5 -58t-60.5 -173v-633h-209z" />
<glyph unicode="o" horiz-adv-x="1099" d="M117 520q0 141 26.5 238.5t96.5 169.5q119 123 309 123q193 0 311 -123q70 -72 96.5 -169t26.5 -239q0 -283 -123 -409q-119 -123 -311 -123q-190 0 -309 123q-123 126 -123 409zM326 520q0 -213 71 -284q61 -61 152 -62q92 0 153 62q72 72 72 284.5t-72 284.5 q-59 59 -153 59q-92 0 -152 -59q-71 -72 -71 -285z" />
<glyph unicode="p" horiz-adv-x="1132" d="M166 -420v1458h205v-110q102 123 274 123q162 0 254 -93q117 -117 117 -438q0 -324 -117 -440q-92 -92 -252 -92q-172 0 -272 118v-526h-209zM375 520q0 -78 8 -133t29.5 -107.5t66.5 -79t112.5 -26.5t113 26.5t67 79t28.5 107.5t7 133t-7 133.5t-28.5 106.5t-67 77.5 t-112.5 26.5q-90 0 -140.5 -51t-63.5 -119t-13 -174z" />
<glyph unicode="q" horiz-adv-x="1132" d="M117 520q0 322 116 438q92 92 254 93q172 0 275 -123v110h205v-1458h-209v526q-100 -119 -273 -118q-160 0 -252 92q-116 116 -116 440zM326 520q0 -78 8 -133t29.5 -107.5t66.5 -79t112.5 -26.5t112.5 26.5t66.5 79t29 107.5t7.5 133t-7.5 133.5t-29 106.5t-66.5 77.5 t-112 26.5q-90 0 -140.5 -51t-63.5 -119t-13 -174z" />
<glyph unicode="r" horiz-adv-x="899" d="M166 0v1038h205v-112q41 55 115.5 90t160.5 35q150 0 248 -99l-158 -157q-70 70 -155 69q-88 0 -147.5 -64.5t-59.5 -168.5v-631h-209z" />
<glyph unicode="s" horiz-adv-x="1021" d="M66 137l137 137q106 -109 299 -108q100 0 163.5 37t63.5 106q0 111 -139 123l-166 14q-307 27 -307 287q0 147 111.5 232.5t279.5 85.5q252 0 385 -117l-131 -133q-90 76 -256 76q-90 0 -139.5 -37t-49.5 -97q0 -106 144 -118l164 -15q309 -27 309 -293 q0 -158 -120 -243.5t-312 -85.5q-284 -1 -436 149z" />
<glyph unicode="t" horiz-adv-x="700" d="M72 860v160h118v315h209v-315h201v-160h-201v-561q0 -121 115 -121h86v-178h-125q-137 0 -211 84t-74 205v571h-118z" />
<glyph unicode="u" horiz-adv-x="1163" d="M156 375v663h209v-632q0 -115 57 -173.5t151.5 -58.5t154.5 58.5t60 173.5v632h209v-1038h-204v104q-109 -117 -277 -116q-158 0 -256 94q-104 103 -104 293z" />
<glyph unicode="v" horiz-adv-x="964" d="M16 1038h222l245 -731l244 731h221l-381 -1038h-170z" />
<glyph unicode="w" horiz-adv-x="1521" d="M16 1038h222l200 -731l242 731h162l239 -731l201 731h223l-323 -1038h-178l-244 725l-242 -725h-180z" />
<glyph unicode="x" horiz-adv-x="1030" d="M45 0l356 530l-342 508h252l205 -338l203 338h252l-340 -508l354 -530h-252l-217 354l-219 -354h-252z" />
<glyph unicode="y" horiz-adv-x="958" d="M16 1038h222l247 -731l242 731h223l-458 -1245q-29 -82 -76 -129q-76 -76 -213 -76h-84v189h53q66 0 96.5 23.5t53.5 86.5l57 162z" />
<glyph unicode="z" horiz-adv-x="960" d="M88 0v166l516 686h-487v186h745v-166l-520 -686h520v-186h-774z" />
<glyph unicode="{" horiz-adv-x="833" d="M92 637v184h76q59 0 98 39q37 37 37 123v342q0 141 74 215q70 70 219 70h145v-187h-79q-92 0 -119 -28q-31 -31 -31 -131v-330q0 -90 -36 -134t-99 -71q63 -27 99 -71t36 -134v-329q0 -100 31 -132q27 -29 119 -28h79v-187h-145q-150 0 -219 70q-74 74 -74 215v342 q0 86 -37 123q-39 39 -98 39h-76z" />
<glyph unicode="|" horiz-adv-x="692" d="M242 -152v1762h209v-1762h-209z" />
<glyph unicode="}" horiz-adv-x="833" d="M92 35h80q92 0 119 28q31 31 31 132v329q0 90 36.5 134t100.5 71q-63 27 -100 71t-37 134v330q0 100 -31 131q-27 29 -119 28h-80v187h146q150 0 219 -70q74 -74 73 -215v-342q0 -86 37 -123q39 -39 101 -39h73v-184h-73q-61 0 -101 -39q-37 -37 -37 -123v-342 q0 -141 -73 -215q-70 -70 -219 -70h-146v187z" />
<glyph unicode="~" horiz-adv-x="1175" d="M88 571q90 90 154.5 125t146.5 35q88 0 227 -67q98 -49 164 -50q47 0 83 17.5t91 73.5l133 -132q-90 -90 -155.5 -124.5t-147.5 -34.5q-90 0 -229 67q-98 49 -162 49q-47 0 -83 -17t-91 -73z" />
<glyph unicode="&#xa1;" horiz-adv-x="679" d="M178 -420l45 1024h164l45 -1024h-254zM190 815v223h230v-223h-230z" />
<glyph unicode="&#xa2;" horiz-adv-x="1019" d="M113 749.5q0 223.5 102 358.5t272 164v186h164v-184q166 -20 289 -152l-139 -135q-76 84 -168 98v-671q92 14 168 98l139 -135q-123 -131 -289 -152v-225h-164v227q-170 29 -272 164t-102 358.5zM322 750q0 -164 63 -252q49 -66 121 -80v663q-70 -14 -119 -80 q-65 -89 -65 -251z" />
<glyph unicode="&#xa3;" horiz-adv-x="1155" d="M88 641v160h127v196q0 219 139.5 346t347.5 127q213 0 355 -141l-148 -145q-45 45 -89 66.5t-118 21.5q-125 0 -194.5 -75t-69.5 -216v-180h264v-160h-264v-442h619v-199h-842v641h-127z" />
<glyph unicode="&#xa4;" horiz-adv-x="1361" d="M139 166l150 151q-78 113 -78 254.5t78 253.5l-150 150l137 137l150 -149q111 76 254 75.5t254 -75.5l151 149l138 -137l-152 -150q78 -113 78 -254t-78 -254l152 -151l-138 -137l-151 151q-113 -78 -254 -78t-254 78l-150 -151zM401 571.5q0 -114.5 82 -196.5t197 -82 t196.5 82t81.5 196.5t-81.5 195.5t-196.5 81t-197 -81t-82 -195.5z" />
<glyph unicode="&#xa5;" horiz-adv-x="1114" d="M10 1458h242l307 -643l303 643h240l-299 -594h178v-159h-260l-53 -105v-106h313v-160h-313v-334h-222v334h-313v160h313v106l-53 105h-260v159h178z" />
<glyph unicode="&#xa6;" horiz-adv-x="704" d="M242 -152v717h209v-717h-209zM242 893v717h209v-717h-209z" />
<glyph unicode="&#xa7;" horiz-adv-x="1112" d="M152 530q0 111 59 195t139 125q-172 84 -172 274q0 147 102.5 246.5t278.5 99.5t278.5 -93t106.5 -244h-201q-12 156 -184 155q-86 0 -133 -41t-47 -117q0 -119 153 -165l144 -43q291 -88 291 -381q0 -111 -59.5 -195t-139.5 -125q180 -80 180 -289q0 -168 -113.5 -266 t-277.5 -98t-277.5 89t-119.5 259h205q6 -76 56 -119t136 -43q88 0 137 46t49 126q0 131 -159 180l-144 44q-288 87 -288 380zM356 535q0 -100 58 -162q53 -57 145 -58q90 0 143 58q59 63 60 162q0 106 -60 163q-61 57 -143 58q-92 0 -145 -58q-58 -61 -58 -163z" />
<glyph unicode="&#xa8;" horiz-adv-x="1024" d="M197 1237v221h188v-221h-188zM639 1237v221h188v-221h-188z" />
<glyph unicode="&#xa9;" horiz-adv-x="1765" d="M141 729q0 307 217 524t524.5 217t524.5 -217t217 -524t-217 -524t-524.5 -217t-524.5 217t-217 524zM291 729q0 -254 172 -428t419.5 -174t420 174t172.5 428t-172.5 428t-420 174t-419.5 -174t-172 -428zM528 729q0 186 100.5 298t266.5 112q145 0 268 -107l-94 -96 q-82 72 -174 72q-113 0 -167 -76t-54 -203t54 -202.5t167 -75.5q92 0 174 71l94 -96q-119 -106 -268 -107q-166 0 -266.5 112t-100.5 298z" />
<glyph unicode="&#xaa;" horiz-adv-x="925" d="M106 872q0 109 74 174.5t211 65.5h215v57q0 78 -42 115t-136 37q-68 0 -104.5 -17.5t-73.5 -62.5l-113 107q57 68 125 93t174 25q340 0 340 -284v-553h-166v73q-82 -82 -217 -81q-147 0 -221 73q-66 65 -66 178zM272 877q0 -113 146 -113q109 0 153 45q35 33 35 119v65 h-190q-144 1 -144 -116z" />
<glyph unicode="&#xab;" horiz-adv-x="1212" d="M76 557l471 469v-252l-219 -217l219 -219v-252zM594 557l471 469v-252l-221 -217l221 -219v-252z" />
<glyph unicode="&#xac;" d="M98 489v195h893v-483h-194v288h-699z" />
<glyph unicode="&#xad;" horiz-adv-x="872" d="M137 471v195h598v-195h-598z" />
<glyph unicode="&#xae;" horiz-adv-x="1765" d="M141 729q0 307 217 524t524.5 217t524.5 -217t217 -524t-217 -524t-524.5 -217t-524.5 217t-217 524zM289 729q0 -254 172 -429t422 -175q248 0 420 175t172 429t-172.5 429t-419.5 175q-250 0 -422 -175t-172 -429zM625 330v800h301q113 0 185.5 -71.5t72.5 -173.5 q0 -80 -44 -136.5t-114 -80.5l178 -338h-166l-164 317h-102v-317h-147zM772 764h135q57 0 94 35t37 86t-36.5 86t-94.5 35h-135v-242z" />
<glyph unicode="&#xaf;" horiz-adv-x="1024" d="M195 1274v149h634v-149h-634z" />
<glyph unicode="&#xb0;" horiz-adv-x="964" d="M125 1124.5q0 147.5 104.5 253t252 105.5t253 -105.5t105.5 -253t-105.5 -252t-253 -104.5t-252 104.5t-104.5 252zM297 1124q0 -80 53 -134t131 -54t132.5 54t54.5 134t-54.5 135.5t-132.5 55.5t-131 -55.5t-53 -135.5z" />
<glyph unicode="&#xb1;" d="M104 0v195h883v-195h-883zM104 647v195h345v344h194v-344h344v-195h-344v-346h-194v346h-345z" />
<glyph unicode="&#xb2;" horiz-adv-x="716" d="M92 584v141l330 381q45 53 45 106q0 51 -28.5 82t-80.5 31q-109 0 -108 -113h-158q0 117 75 185.5t191.5 68.5t191.5 -68.5t75 -185.5q0 -57 -21.5 -99t-73.5 -101l-247 -287h342v-141h-533z" />
<glyph unicode="&#xb3;" horiz-adv-x="741" d="M92 831h158q2 -57 37 -86.5t86 -29.5q53 0 86 32.5t33 92.5q0 57 -33 90t-92 33h-23v135h23q55 0 84.5 31.5t29.5 80.5q0 55 -31.5 85t-78.5 30t-78 -27.5t-33 -78.5h-156q2 115 78 181t189 66q117 0 191.5 -69.5t74.5 -179.5q0 -129 -102 -183q115 -59 114 -198 q0 -125 -78.5 -194t-197.5 -69q-117 0 -198 64.5t-83 193.5z" />
<glyph unicode="&#xb4;" horiz-adv-x="1024" d="M406 1227l153 332h232l-228 -332h-157z" />
<glyph unicode="&#xb5;" horiz-adv-x="1165" d="M156 -420v1458h209v-632q0 -115 58 -173.5t152.5 -58.5t153.5 58.5t59 173.5v632h209v-1038h-204v104q-109 -117 -275 -116q-92 0 -153 51v-459h-209z" />
<glyph unicode="&#xb6;" horiz-adv-x="1304" d="M78 1051q0 184 126 295.5t335 111.5h575v-1878h-209v1680h-221v-1680h-209v1069q-166 0 -281.5 119t-115.5 283z" />
<glyph unicode="&#xb7;" horiz-adv-x="569" d="M160 444v250h250v-250h-250z" />
<glyph unicode="&#xb8;" horiz-adv-x="1024" d="M342 -432l143 301h168l-104 -301h-207z" />
<glyph unicode="&#xb9;" horiz-adv-x="567" d="M82 1126v179l178 153h158v-874h-158v698z" />
<glyph unicode="&#xba;" horiz-adv-x="937" d="M125 1044q0 223 98 324q94 98 246 98q154 0 248 -98q98 -100 98 -324q0 -225 -98 -325q-94 -98 -248 -98q-152 0 -246 98q-98 100 -98 325zM295 1044q0 -170 55 -225q47 -47 119 -47q74 0 121 47q53 53 53 225q0 170 -53 224q-47 47 -121 47q-72 0 -119 -47 q-55 -56 -55 -224z" />
<glyph unicode="&#xbb;" horiz-adv-x="1212" d="M147 86v252l222 219l-222 217v252l474 -469zM666 86v252l219 219l-219 217v252l473 -469z" />
<glyph unicode="&#xbc;" horiz-adv-x="1654" d="M82 1126v179l178 153h158v-874h-158v698zM369 0l686 1458h166l-686 -1458h-166zM983 125v145l301 604h170l-301 -604h186v170h152v-170h82v-145h-82v-125h-152v125h-356z" />
<glyph unicode="&#xbd;" horiz-adv-x="1693" d="M82 1126v179l178 153h158v-874h-158v698zM352 0l686 1458h166l-686 -1458h-166zM1071 0v141l328 381q45 53 45 107q0 51 -29 81.5t-80 30.5q-109 0 -108 -112h-156q0 117 74 185.5t190.5 68.5t191.5 -69t75 -185q0 -57 -21.5 -99.5t-73.5 -101.5l-247 -287h342v-141h-531 z" />
<glyph unicode="&#xbe;" horiz-adv-x="1728" d="M92 831h158q2 -57 37 -86.5t86 -29.5q53 0 86 32.5t33 92.5q0 57 -33 90t-92 33h-23v135h23q55 0 84.5 31.5t29.5 80.5q0 55 -31.5 85t-78.5 30t-78 -27.5t-33 -78.5h-156q2 115 78 181t189 66q117 0 191.5 -69.5t74.5 -179.5q0 -129 -102 -183q115 -59 114 -198 q0 -125 -78.5 -194t-197.5 -69q-117 0 -198 64.5t-83 193.5zM455 0l686 1458h166l-686 -1458h-166zM1059 125v145l299 604h172l-301 -604h186v170h150v-170h82v-145h-82v-125h-150v125h-356z" />
<glyph unicode="&#xbf;" horiz-adv-x="1046" d="M84 -39q0 121 96 252l160 221q37 51 37 111v61h209v-74q0 -106 -72 -202l-158 -215q-63 -84 -63 -156q0 -88 55 -145.5t144 -57.5q92 0 146 59.5t54 145.5h209q0 -172 -116.5 -282.5t-292.5 -110.5q-172 0 -290 108.5t-118 284.5zM367 815v223h229v-223h-229z" />
<glyph unicode="&#xc0;" horiz-adv-x="1280" d="M16 0l535 1458h178l535 -1458h-236l-100 293h-576l-100 -293h-236zM418 481h448l-221 647zM354 1932h232l153 -332h-157z" />
<glyph unicode="&#xc1;" horiz-adv-x="1280" d="M16 0l535 1458h178l535 -1458h-236l-100 293h-576l-100 -293h-236zM418 481h448l-221 647zM529 1600l153 332h232l-228 -332h-157z" />
<glyph unicode="&#xc2;" horiz-adv-x="1280" d="M16 0l535 1458h178l535 -1458h-236l-100 293h-576l-100 -293h-236zM418 481h448l-221 647zM283 1600l264 329h176l264 -329h-174l-178 198l-178 -198h-174z" />
<glyph unicode="&#xc3;" horiz-adv-x="1280" d="M16 0l535 1458h178l535 -1458h-236l-100 293h-576l-100 -293h-236zM418 481h448l-221 647zM281 1747q113 113 213 113q70 0 153 -49q66 -39 113 -39q57 0 121 63l98 -96q-113 -113 -213 -113q-72 0 -153 47q-68 39 -115 39q-57 0 -119 -61z" />
<glyph unicode="&#xc4;" horiz-adv-x="1280" d="M16 0l535 1458h178l535 -1458h-236l-100 293h-576l-100 -293h-236zM418 481h448l-221 647zM320 1610v221h188v-221h-188zM762 1610v221h188v-221h-188z" />
<glyph unicode="&#xc5;" horiz-adv-x="1280" d="M16 0l535 1458h178l535 -1458h-236l-100 293h-576l-100 -293h-236zM418 481h448l-221 647zM379 1791.5q0 106.5 75 181.5t181 75t181 -75t75 -181.5t-75 -181t-181 -74.5t-181 74.5t-75 181zM504 1791.5q0 -53.5 39 -91t92 -37.5t92 37.5t39 91t-39 91.5t-92 38t-92 -38 t-39 -91.5z" />
<glyph unicode="&#xc6;" horiz-adv-x="1949" d="M10 0l766 1458h1061v-198h-711v-429h607v-198h-607v-434h711v-199h-932v332h-481l-172 -332h-242zM520 520h385v740z" />
<glyph unicode="&#xc7;" horiz-adv-x="1286" d="M137 729q0 111 1 158t7.5 125t21.5 118.5t42 91t70 93.5q156 156 383 155q205 0 344 -116.5t176 -331.5h-226q-27 115 -102.5 182.5t-191.5 67.5q-133 0 -216 -88q-53 -59 -70.5 -147.5t-17.5 -307.5t17.5 -307t70.5 -148q82 -88 216 -88q117 0 193.5 68t102.5 182h224 q-37 -213 -177.5 -330.5t-342.5 -117.5q-227 0 -383 155q-43 43 -70 93.5t-42 91.5t-21.5 118.5t-7.5 124.5t-1 158zM455 -432l143 301h168l-104 -301h-207z" />
<glyph unicode="&#xc8;" horiz-adv-x="1234" d="M190 0v1458h932v-198h-710v-426h606v-197h-606v-438h710v-199h-932zM358 1932h232l153 -332h-157z" />
<glyph unicode="&#xc9;" horiz-adv-x="1234" d="M190 0v1458h932v-198h-710v-426h606v-197h-606v-438h710v-199h-932zM531 1600l153 332h232l-228 -332h-157z" />
<glyph unicode="&#xca;" horiz-adv-x="1234" d="M190 0v1458h932v-198h-710v-426h606v-197h-606v-438h710v-199h-932zM285 1600l264 329h176l264 -329h-174l-178 198l-178 -198h-174z" />
<glyph unicode="&#xcb;" horiz-adv-x="1234" d="M190 0v1458h932v-198h-710v-426h606v-197h-606v-438h710v-199h-932zM322 1610v221h188v-221h-188zM764 1610v221h188v-221h-188z" />
<glyph unicode="&#xcc;" horiz-adv-x="602" d="M190 0v1458h222v-1458h-222zM190 1932h232l153 -332h-157z" />
<glyph unicode="&#xcd;" horiz-adv-x="602" d="M190 0v1458h222v-1458h-222zM191 1600l153 332h232l-228 -332h-157z" />
<glyph unicode="&#xce;" horiz-adv-x="602" d="M190 0v1458h222v-1458h-222zM191 1600l264 329h176l264 -329h-174l-178 198l-178 -198h-174z" />
<glyph unicode="&#xcf;" horiz-adv-x="602" d="M190 0v1458h222v-1458h-222zM191 1610v221h188v-221h-188zM633 1610v221h188v-221h-188z" />
<glyph unicode="&#xd0;" horiz-adv-x="1400" d="M78 651v170h151v637h512q260 0 412 -194q78 -100 94.5 -196.5t16.5 -338.5q0 -246 -17.5 -345t-93.5 -191q-156 -193 -418 -193h-506v651h-151zM451 197h264q184 0 272 129q37 55 46 122.5t9 274.5q0 205 -11 279.5t-52 132.5q-92 127 -264 127h-264v-441h282v-170h-282 v-454z" />
<glyph unicode="&#xd1;" horiz-adv-x="1478" d="M190 0v1458h203l674 -1024v1024h221v-1458h-203l-673 1026v-1026h-222zM387 1747q113 113 213 113q70 0 153 -49q66 -39 113 -39q57 0 121 63l98 -96q-113 -113 -213 -113q-72 0 -153 47q-68 39 -115 39q-57 0 -119 -61z" />
<glyph unicode="&#xd2;" horiz-adv-x="1323" d="M137 729q0 111 1 158t7.5 125t21.5 118.5t42 91t70 93.5q156 156 383 155q229 0 385 -155q43 -43 69.5 -93.5t40.5 -90t20.5 -120.5t7.5 -123t1 -159t-1 -159t-7.5 -122.5t-20.5 -120.5t-40.5 -90.5t-69.5 -93.5q-156 -156 -385 -155q-227 0 -383 155q-43 43 -70 93.5 t-42 91.5t-21.5 118.5t-7.5 124.5t-1 158zM358 729q0 -221 16.5 -308t69.5 -145q84 -90 217.5 -90t217.5 90q53 57 69.5 144.5t16.5 308.5t-16.5 308t-69.5 145q-84 90 -217.5 90t-217.5 -90q-53 -57 -69.5 -144.5t-16.5 -308.5zM383 1932h232l153 -332h-157z" />
<glyph unicode="&#xd3;" horiz-adv-x="1323" d="M137 729q0 111 1 158t7.5 125t21.5 118.5t42 91t70 93.5q156 156 383 155q229 0 385 -155q43 -43 69.5 -93.5t40.5 -90t20.5 -120.5t7.5 -123t1 -159t-1 -159t-7.5 -122.5t-20.5 -120.5t-40.5 -90.5t-69.5 -93.5q-156 -156 -385 -155q-227 0 -383 155q-43 43 -70 93.5 t-42 91.5t-21.5 118.5t-7.5 124.5t-1 158zM358 729q0 -221 16.5 -308t69.5 -145q84 -90 217.5 -90t217.5 90q53 57 69.5 144.5t16.5 308.5t-16.5 308t-69.5 145q-84 90 -217.5 90t-217.5 -90q-53 -57 -69.5 -144.5t-16.5 -308.5zM556 1600l153 332h232l-228 -332h-157z" />
<glyph unicode="&#xd4;" horiz-adv-x="1323" d="M137 729q0 111 1 158t7.5 125t21.5 118.5t42 91t70 93.5q156 156 383 155q229 0 385 -155q43 -43 69.5 -93.5t40.5 -90t20.5 -120.5t7.5 -123t1 -159t-1 -159t-7.5 -122.5t-20.5 -120.5t-40.5 -90.5t-69.5 -93.5q-156 -156 -385 -155q-227 0 -383 155q-43 43 -70 93.5 t-42 91.5t-21.5 118.5t-7.5 124.5t-1 158zM358 729q0 -221 16.5 -308t69.5 -145q84 -90 217.5 -90t217.5 90q53 57 69.5 144.5t16.5 308.5t-16.5 308t-69.5 145q-84 90 -217.5 90t-217.5 -90q-53 -57 -69.5 -144.5t-16.5 -308.5zM310 1600l264 329h176l264 -329h-174 l-178 198l-178 -198h-174z" />
<glyph unicode="&#xd5;" horiz-adv-x="1323" d="M137 729q0 111 1 158t7.5 125t21.5 118.5t42 91t70 93.5q156 156 383 155q229 0 385 -155q43 -43 69.5 -93.5t40.5 -90t20.5 -120.5t7.5 -123t1 -159t-1 -159t-7.5 -122.5t-20.5 -120.5t-40.5 -90.5t-69.5 -93.5q-156 -156 -385 -155q-227 0 -383 155q-43 43 -70 93.5 t-42 91.5t-21.5 118.5t-7.5 124.5t-1 158zM358 729q0 -221 16.5 -308t69.5 -145q84 -90 217.5 -90t217.5 90q53 57 69.5 144.5t16.5 308.5t-16.5 308t-69.5 145q-84 90 -217.5 90t-217.5 -90q-53 -57 -69.5 -144.5t-16.5 -308.5zM310 1747q113 113 213 113q70 0 153 -49 q66 -39 113 -39q57 0 121 63l98 -96q-113 -113 -213 -113q-72 0 -153 47q-68 39 -115 39q-57 0 -119 -61z" />
<glyph unicode="&#xd6;" horiz-adv-x="1323" d="M137 729q0 111 1 158t7.5 125t21.5 118.5t42 91t70 93.5q156 156 383 155q229 0 385 -155q43 -43 69.5 -93.5t40.5 -90t20.5 -120.5t7.5 -123t1 -159t-1 -159t-7.5 -122.5t-20.5 -120.5t-40.5 -90.5t-69.5 -93.5q-156 -156 -385 -155q-227 0 -383 155q-43 43 -70 93.5 t-42 91.5t-21.5 118.5t-7.5 124.5t-1 158zM358 729q0 -221 16.5 -308t69.5 -145q84 -90 217.5 -90t217.5 90q53 57 69.5 144.5t16.5 308.5t-16.5 308t-69.5 145q-84 90 -217.5 90t-217.5 -90q-53 -57 -69.5 -144.5t-16.5 -308.5zM347 1610v221h188v-221h-188zM789 1610v221 h188v-221h-188z" />
<glyph unicode="&#xd7;" d="M117 270l299 299l-299 299l131 131l297 -299l299 299l131 -131l-299 -299l299 -299l-131 -129l-299 297l-297 -297z" />
<glyph unicode="&#xd8;" horiz-adv-x="1335" d="M137 729q0 111 1 158t7.5 125t21.5 118.5t42 91t70 93.5q156 156 383 155q131 0 245 -55l62 133h170l-107 -221q2 -2 7 -6t8 -6q43 -43 69.5 -93.5t40.5 -90t20.5 -120.5t7.5 -123t1 -159t-1 -159t-7.5 -122.5t-20.5 -120.5t-40.5 -90.5t-69.5 -93.5q-156 -156 -385 -155 q-129 0 -244 55l-64 -133h-168l105 221l-12 12q-43 43 -70 93.5t-42 91.5t-21.5 118.5t-7.5 124.5t-1 158zM360 729q0 -303 41 -389l424 887q-74 45 -163 45q-131 0 -216 -90q-53 -57 -69.5 -144.5t-16.5 -308.5zM500 231q72 -45 162 -45q133 0 217 90q53 57 69.5 144.5 t16.5 308.5q0 307 -41 389z" />
<glyph unicode="&#xd9;" horiz-adv-x="1382" d="M168 492v966h221v-956q0 -145 82 -230.5t219 -85.5t220 85t83 231v956h221v-966q0 -223 -149.5 -363.5t-374.5 -140.5t-373.5 140.5t-148.5 363.5zM413 1932h232l153 -332h-157z" />
<glyph unicode="&#xda;" horiz-adv-x="1382" d="M168 492v966h221v-956q0 -145 82 -230.5t219 -85.5t220 85t83 231v956h221v-966q0 -223 -149.5 -363.5t-374.5 -140.5t-373.5 140.5t-148.5 363.5zM586 1600l153 332h232l-228 -332h-157z" />
<glyph unicode="&#xdb;" horiz-adv-x="1382" d="M168 492v966h221v-956q0 -145 82 -230.5t219 -85.5t220 85t83 231v956h221v-966q0 -223 -149.5 -363.5t-374.5 -140.5t-373.5 140.5t-148.5 363.5zM340 1600l264 329h176l264 -329h-174l-178 198l-178 -198h-174z" />
<glyph unicode="&#xdc;" horiz-adv-x="1382" d="M168 492v966h221v-956q0 -145 82 -230.5t219 -85.5t220 85t83 231v956h221v-966q0 -223 -149.5 -363.5t-374.5 -140.5t-373.5 140.5t-148.5 363.5zM377 1610v221h188v-221h-188zM819 1610v221h188v-221h-188z" />
<glyph unicode="&#xdd;" horiz-adv-x="1114" d="M10 1458h242l305 -641l305 641h242l-436 -858v-600h-222v600zM451 1600l153 332h232l-228 -332h-157z" />
<glyph unicode="&#xde;" horiz-adv-x="1304" d="M190 0v1458h222v-280h331q211 0 339 -125t128 -317.5t-128 -316.5t-339 -124h-331v-295h-222zM412 494h317q117 0 187.5 64.5t70.5 176.5q0 115 -70.5 179.5t-187.5 64.5h-317v-485z" />
<glyph unicode="&#xdf;" horiz-adv-x="1157" d="M166 0v1069q0 197 118.5 300.5t319.5 103.5q188 0 304 -88.5t116 -262.5q0 -156 -127 -237q68 -35 98.5 -87.5t30.5 -148.5v-338q0 -154 -84 -231q-86 -80 -233 -80h-109v178h66q66 0 106 35q43 33 43 117v319q0 74 -37 109q-39 39 -106 39h-72v166h64q68 0 109.5 39.5 t41.5 113.5q0 76 -51 123q-51 49 -166 49q-221 0 -221 -231v-1057h-211z" />
<glyph unicode="&#xe0;" horiz-adv-x="1085" d="M88 305q0 135 92 217t266 82h275v74q0 100 -54.5 147t-172.5 47q-86 0 -135.5 -22.5t-92.5 -77.5l-137 129q72 84 156 117t217 33q428 0 428 -357v-694h-205v94q-57 -57 -119.5 -81.5t-156.5 -24.5q-184 0 -279 94q-82 86 -82 223zM291 309q0 -147 190 -147q133 0 195 59 q45 45 45 154v84h-244q-186 0 -186 -150zM247 1559h232l153 -332h-157z" />
<glyph unicode="&#xe1;" horiz-adv-x="1085" d="M88 305q0 135 92 217t266 82h275v74q0 100 -54.5 147t-172.5 47q-86 0 -135.5 -22.5t-92.5 -77.5l-137 129q72 84 156 117t217 33q428 0 428 -357v-694h-205v94q-57 -57 -119.5 -81.5t-156.5 -24.5q-184 0 -279 94q-82 86 -82 223zM291 309q0 -147 190 -147q133 0 195 59 q45 45 45 154v84h-244q-186 0 -186 -150zM420 1227l153 332h232l-228 -332h-157z" />
<glyph unicode="&#xe2;" horiz-adv-x="1085" d="M88 305q0 135 92 217t266 82h275v74q0 100 -54.5 147t-172.5 47q-86 0 -135.5 -22.5t-92.5 -77.5l-137 129q72 84 156 117t217 33q428 0 428 -357v-694h-205v94q-57 -57 -119.5 -81.5t-156.5 -24.5q-184 0 -279 94q-82 86 -82 223zM291 309q0 -147 190 -147q133 0 195 59 q45 45 45 154v84h-244q-186 0 -186 -150zM174 1227l264 329h176l264 -329h-174l-178 198l-178 -198h-174z" />
<glyph unicode="&#xe3;" horiz-adv-x="1085" d="M88 305q0 135 92 217t266 82h275v74q0 100 -54.5 147t-172.5 47q-86 0 -135.5 -22.5t-92.5 -77.5l-137 129q72 84 156 117t217 33q428 0 428 -357v-694h-205v94q-57 -57 -119.5 -81.5t-156.5 -24.5q-184 0 -279 94q-82 86 -82 223zM291 309q0 -147 190 -147q133 0 195 59 q45 45 45 154v84h-244q-186 0 -186 -150zM174 1374q113 113 213 113q70 0 153 -49q66 -39 113 -39q57 0 121 63l98 -96q-113 -113 -213 -113q-72 0 -153 47q-68 39 -115 39q-57 0 -119 -61z" />
<glyph unicode="&#xe4;" horiz-adv-x="1085" d="M88 305q0 135 92 217t266 82h275v74q0 100 -54.5 147t-172.5 47q-86 0 -135.5 -22.5t-92.5 -77.5l-137 129q72 84 156 117t217 33q428 0 428 -357v-694h-205v94q-57 -57 -119.5 -81.5t-156.5 -24.5q-184 0 -279 94q-82 86 -82 223zM291 309q0 -147 190 -147q133 0 195 59 q45 45 45 154v84h-244q-186 0 -186 -150zM211 1237v221h188v-221h-188zM653 1237v221h188v-221h-188z" />
<glyph unicode="&#xe5;" horiz-adv-x="1085" d="M88 305q0 135 92 217t266 82h275v74q0 100 -54.5 147t-172.5 47q-86 0 -135.5 -22.5t-92.5 -77.5l-137 129q72 84 156 117t217 33q428 0 428 -357v-694h-205v94q-57 -57 -119.5 -81.5t-156.5 -24.5q-184 0 -279 94q-82 86 -82 223zM291 309q0 -147 190 -147q133 0 195 59 q45 45 45 154v84h-244q-186 0 -186 -150zM270 1435.5q0 106.5 75 181.5t181 75t181 -75t75 -181.5t-75 -181t-181 -74.5t-181 74.5t-75 181zM395 1435.5q0 -53.5 39 -91t92 -37.5t92 37.5t39 91t-39 91.5t-92 38t-92 -38t-39 -91.5z" />
<glyph unicode="&#xe6;" horiz-adv-x="1714" d="M88 305q0 135 92 217t266 82h275v74q0 100 -54.5 147t-172.5 47q-86 0 -135.5 -22.5t-92.5 -77.5l-137 129q72 84 156 117t217 33q256 0 352 -138q113 137 307 138q205 0 323 -137.5t118 -362.5v-92h-674q0 -135 68.5 -213t195.5 -78q84 0 139 24.5t113 81.5l133 -124 q-84 -84 -171 -123t-218 -39q-246 0 -367 162q-76 -92 -161 -127t-211 -35q-184 0 -279 94q-82 86 -82 223zM291 309q0 -147 190 -147q133 0 195 59q45 45 45 154v84h-244q-186 0 -186 -150zM928 604h467q-2 86 -27 141q-25 59 -80 95.5t-127 36.5q-150 0 -205 -132 q-26 -59 -28 -141z" />
<glyph unicode="&#xe7;" horiz-adv-x="993" d="M113 520.5q0 141.5 38.5 246.5t105.5 165.5t146.5 89.5t171.5 29q205 0 343 -146l-144 -139q-49 53 -93 75.5t-106 22.5q-123 0 -192 -92q-61 -78 -61 -252q0 -176 61 -254q70 -92 192 -92q61 0 105.5 22.5t93.5 75.5l144 -137q-139 -147 -343 -147q-92 0 -171.5 29.5 t-146.5 90t-105.5 166t-38.5 247zM342 -432l143 301h168l-104 -301h-207z" />
<glyph unicode="&#xe8;" horiz-adv-x="1103" d="M113 520q0 250 118.5 390.5t321.5 140.5q205 0 322.5 -137.5t117.5 -362.5v-92h-674q0 -135 69 -213t196 -78q84 0 139 24.5t113 81.5l133 -124q-84 -84 -171 -123t-218 -39q-213 0 -340 126.5t-127 405.5zM319 604h467q-2 82 -28 141q-55 131 -205 132q-72 0 -127 -36 t-80 -96q-25 -55 -27 -141zM280 1559h232l153 -332h-157z" />
<glyph unicode="&#xe9;" horiz-adv-x="1103" d="M113 520q0 250 118.5 390.5t321.5 140.5q205 0 322.5 -137.5t117.5 -362.5v-92h-674q0 -135 69 -213t196 -78q84 0 139 24.5t113 81.5l133 -124q-84 -84 -171 -123t-218 -39q-213 0 -340 126.5t-127 405.5zM319 604h467q-2 82 -28 141q-55 131 -205 132q-72 0 -127 -36 t-80 -96q-25 -55 -27 -141zM453 1227l153 332h232l-228 -332h-157z" />
<glyph unicode="&#xea;" horiz-adv-x="1103" d="M113 520q0 250 118.5 390.5t321.5 140.5q205 0 322.5 -137.5t117.5 -362.5v-92h-674q0 -135 69 -213t196 -78q84 0 139 24.5t113 81.5l133 -124q-84 -84 -171 -123t-218 -39q-213 0 -340 126.5t-127 405.5zM319 604h467q-2 82 -28 141q-55 131 -205 132q-72 0 -127 -36 t-80 -96q-25 -55 -27 -141zM207 1227l264 329h176l264 -329h-174l-178 198l-178 -198h-174z" />
<glyph unicode="&#xeb;" horiz-adv-x="1103" d="M113 520q0 250 118.5 390.5t321.5 140.5q205 0 322.5 -137.5t117.5 -362.5v-92h-674q0 -135 69 -213t196 -78q84 0 139 24.5t113 81.5l133 -124q-84 -84 -171 -123t-218 -39q-213 0 -340 126.5t-127 405.5zM319 604h467q-2 82 -28 141q-55 131 -205 132q-72 0 -127 -36 t-80 -96q-25 -55 -27 -141zM244 1237v221h188v-221h-188zM686 1237v221h188v-221h-188z" />
<glyph unicode="&#xec;" horiz-adv-x="540" d="M166 0v1038h209v-1038h-209zM165 1559h232l153 -332h-157z" />
<glyph unicode="&#xed;" horiz-adv-x="540" d="M166 0v1038h209v-1038h-209zM166 1227l153 332h232l-228 -332h-157z" />
<glyph unicode="&#xee;" horiz-adv-x="540" d="M166 0v1038h209v-1038h-209zM166 1227l264 329h176l264 -329h-174l-178 198l-178 -198h-174z" />
<glyph unicode="&#xef;" horiz-adv-x="540" d="M166 0v1038h209v-1038h-209zM166 1237v221h188v-221h-188zM608 1237v221h188v-221h-188z" />
<glyph unicode="&#xf0;" horiz-adv-x="1099" d="M125 510q0 141 25.5 235.5t95.5 165.5q80 82 213 105q84 14 155 -4l-92 166h-237v147h159l-79 143h221l80 -143h178v-147h-103l105 -193q78 -143 103.5 -237.5t25.5 -237.5q0 -141 -25.5 -235.5t-95.5 -165.5q-115 -121 -305 -121q-188 0 -303 121q-70 72 -95.5 166 t-25.5 235zM334 510q0 -207 67 -277q59 -59 148 -59q90 0 149 59q68 70 68 277t-68 276q-59 59 -149 60q-88 0 -148 -60q-67 -69 -67 -276z" />
<glyph unicode="&#xf1;" horiz-adv-x="1163" d="M166 0v1038h205v-104q109 117 276 117q158 0 256 -95q104 -102 105 -292v-664h-209v633q0 117 -57.5 174t-151.5 57t-154.5 -58t-60.5 -173v-633h-209zM236 1374q113 113 213 113q70 0 153 -49q66 -39 113 -39q57 0 121 63l98 -96q-113 -113 -213 -113q-72 0 -153 47 q-68 39 -115 39q-57 0 -119 -61z" />
<glyph unicode="&#xf2;" horiz-adv-x="1099" d="M117 520q0 141 26.5 238.5t96.5 169.5q119 123 309 123q193 0 311 -123q70 -72 96.5 -169t26.5 -239q0 -283 -123 -409q-119 -123 -311 -123q-190 0 -309 123q-123 126 -123 409zM326 520q0 -213 71 -284q61 -61 152 -62q92 0 153 62q72 72 72 284.5t-72 284.5 q-59 59 -153 59q-92 0 -152 -59q-71 -72 -71 -285zM256 1559h232l153 -332h-157z" />
<glyph unicode="&#xf3;" horiz-adv-x="1099" d="M117 520q0 141 26.5 238.5t96.5 169.5q119 123 309 123q193 0 311 -123q70 -72 96.5 -169t26.5 -239q0 -283 -123 -409q-119 -123 -311 -123q-190 0 -309 123q-123 126 -123 409zM326 520q0 -213 71 -284q61 -61 152 -62q92 0 153 62q72 72 72 284.5t-72 284.5 q-59 59 -153 59q-92 0 -152 -59q-71 -72 -71 -285zM443 1227l153 332h232l-228 -332h-157z" />
<glyph unicode="&#xf4;" horiz-adv-x="1099" d="M117 520q0 141 26.5 238.5t96.5 169.5q119 123 309 123q193 0 311 -123q70 -72 96.5 -169t26.5 -239q0 -283 -123 -409q-119 -123 -311 -123q-190 0 -309 123q-123 126 -123 409zM326 520q0 -213 71 -284q61 -61 152 -62q92 0 153 62q72 72 72 284.5t-72 284.5 q-59 59 -153 59q-92 0 -152 -59q-71 -72 -71 -285zM197 1227l264 329h176l264 -329h-174l-178 198l-178 -198h-174z" />
<glyph unicode="&#xf5;" horiz-adv-x="1099" d="M117 520q0 141 26.5 238.5t96.5 169.5q119 123 309 123q193 0 311 -123q70 -72 96.5 -169t26.5 -239q0 -283 -123 -409q-119 -123 -311 -123q-190 0 -309 123q-123 126 -123 409zM326 520q0 -213 71 -284q61 -61 152 -62q92 0 153 62q72 72 72 284.5t-72 284.5 q-59 59 -153 59q-92 0 -152 -59q-71 -72 -71 -285zM197 1374q113 113 213 113q70 0 153 -49q66 -39 113 -39q57 0 121 63l98 -96q-113 -113 -213 -113q-72 0 -153 47q-68 39 -115 39q-57 0 -119 -61z" />
<glyph unicode="&#xf6;" horiz-adv-x="1099" d="M117 520q0 141 26.5 238.5t96.5 169.5q119 123 309 123q193 0 311 -123q70 -72 96.5 -169t26.5 -239q0 -283 -123 -409q-119 -123 -311 -123q-190 0 -309 123q-123 126 -123 409zM326 520q0 -213 71 -284q61 -61 152 -62q92 0 153 62q72 72 72 284.5t-72 284.5 q-59 59 -153 59q-92 0 -152 -59q-71 -72 -71 -285zM234 1237v221h188v-221h-188zM676 1237v221h188v-221h-188z" />
<glyph unicode="&#xf7;" d="M98 471v195h893v-195h-893zM434 68v223h223v-223h-223zM434 848v223h223v-223h-223z" />
<glyph unicode="&#xf8;" horiz-adv-x="1099" d="M117 520.5q0 141.5 26.5 238.5t96.5 169q119 123 309 123q119 0 215 -52l76 129h141l-121 -200q70 -72 96.5 -169t26.5 -239q0 -283 -123 -409q-119 -123 -311 -123q-117 0 -213 51l-76 -129h-141l119 203q-70 72 -95.5 169t-25.5 238.5zM326 520q0 -152 30 -223l316 532 q-53 35 -123 35q-92 0 -152 -59q-71 -72 -71 -285zM428 211q53 -37 121 -37q92 0 153 62q72 72 72 284q0 152 -31 223z" />
<glyph unicode="&#xf9;" horiz-adv-x="1163" d="M156 375v663h209v-632q0 -115 57 -173.5t151.5 -58.5t154.5 58.5t60 173.5v632h209v-1038h-204v104q-109 -117 -277 -116q-158 0 -256 94q-104 103 -104 293zM296 1559h232l153 -332h-157z" />
<glyph unicode="&#xfa;" horiz-adv-x="1163" d="M156 375v663h209v-632q0 -115 57 -173.5t151.5 -58.5t154.5 58.5t60 173.5v632h209v-1038h-204v104q-109 -117 -277 -116q-158 0 -256 94q-104 103 -104 293zM469 1227l153 332h232l-228 -332h-157z" />
<glyph unicode="&#xfb;" horiz-adv-x="1163" d="M156 375v663h209v-632q0 -115 57 -173.5t151.5 -58.5t154.5 58.5t60 173.5v632h209v-1038h-204v104q-109 -117 -277 -116q-158 0 -256 94q-104 103 -104 293zM223 1227l264 329h176l264 -329h-174l-178 198l-178 -198h-174z" />
<glyph unicode="&#xfc;" horiz-adv-x="1163" d="M156 375v663h209v-632q0 -115 57 -173.5t151.5 -58.5t154.5 58.5t60 173.5v632h209v-1038h-204v104q-109 -117 -277 -116q-158 0 -256 94q-104 103 -104 293zM260 1237v221h188v-221h-188zM702 1237v221h188v-221h-188z" />
<glyph unicode="&#xfd;" horiz-adv-x="958" d="M16 1038h222l247 -731l242 731h223l-458 -1245q-29 -82 -76 -129q-76 -76 -213 -76h-84v189h53q66 0 96.5 23.5t53.5 86.5l57 162zM373 1227l153 332h232l-228 -332h-157z" />
<glyph unicode="&#xfe;" horiz-adv-x="1134" d="M166 -420v1878h209v-524q98 117 272 117q160 0 252 -93q117 -117 117 -438q0 -324 -117 -440q-92 -92 -252 -92q-172 0 -272 118v-526h-209zM375 520q0 -78 8 -133t29.5 -107.5t66.5 -79t112.5 -26.5t113 26.5t67 79t28.5 107.5t7 133t-7 133.5t-28.5 106.5t-67 77.5 t-112.5 26.5q-90 0 -140.5 -51t-63.5 -119t-13 -174z" />
<glyph unicode="&#xff;" horiz-adv-x="958" d="M16 1038h222l247 -731l242 731h223l-458 -1245q-29 -82 -76 -129q-76 -76 -213 -76h-84v189h53q66 0 96.5 23.5t53.5 86.5l57 162zM164 1237v221h188v-221h-188zM606 1237v221h188v-221h-188z" />
<glyph unicode="&#x131;" horiz-adv-x="540" d="M166 0v1038h209v-1038h-209z" />
<glyph unicode="&#x152;" horiz-adv-x="2000" d="M137 729q0 133 2 195.5t15.5 146.5t43 140.5t81.5 107.5q152 152 378 151q195 0 308 -131v119h921v-196h-700v-431h596v-192h-596v-442h702v-197h-923v119q-113 -131 -308 -131q-227 0 -378 151q-96 96 -119 217t-23 373zM360 729q0 -221 16.5 -308t69.5 -145 q84 -90 216 -90q133 0 217 90q53 57 69.5 144.5t16.5 308.5t-16.5 308t-69.5 145q-84 90 -217 90q-131 0 -216 -90q-53 -57 -69.5 -144.5t-16.5 -308.5z" />
<glyph unicode="&#x153;" horiz-adv-x="1765" d="M117 520q0 141 26.5 238.5t96.5 169.5q119 123 309 123q229 0 336 -166q109 166 327 166q205 0 323 -137.5t118 -362.5v-92h-674q0 -135 68.5 -213t195.5 -78q84 0 139.5 24.5t112.5 81.5l133 -124q-86 -86 -171 -124t-216 -38q-242 0 -358 164q-106 -164 -334 -164 q-190 0 -309 123q-123 126 -123 409zM326 520q0 -213 71 -284q61 -61 152 -62q92 0 153 62q72 72 72 284.5t-72 284.5q-59 59 -153 59q-92 0 -152 -59q-71 -72 -71 -285zM979 604h467q-2 86 -27 141q-25 59 -80 95.5t-127 36.5q-150 0 -204 -132q-27 -59 -29 -141z" />
<glyph unicode="&#x178;" horiz-adv-x="1114" d="M10 1458h242l305 -641l305 641h242l-436 -858v-600h-222v600zM242 1610v221h188v-221h-188zM684 1610v221h188v-221h-188z" />
<glyph unicode="&#x2c6;" horiz-adv-x="1024" d="M160 1227l264 329h176l264 -329h-174l-178 198l-178 -198h-174z" />
<glyph unicode="&#x2da;" horiz-adv-x="1024" d="M256 1435.5q0 106.5 75 181.5t181 75t181 -75t75 -181.5t-75 -181t-181 -74.5t-181 74.5t-75 181zM381 1435.5q0 -53.5 39 -91t92 -37.5t92 37.5t39 91t-39 91.5t-92 38t-92 -38t-39 -91.5z" />
<glyph unicode="&#x2dc;" horiz-adv-x="1024" d="M160 1374q113 113 213 113q70 0 153 -49q66 -39 113 -39q57 0 121 63l98 -96q-113 -113 -213 -113q-72 0 -153 47q-68 39 -115 39q-57 0 -119 -61z" />
<glyph unicode="&#x3bc;" horiz-adv-x="1165" d="M156 -420v1458h209v-632q0 -115 58 -173.5t152.5 -58.5t153.5 58.5t59 173.5v632h209v-1038h-204v104q-109 -117 -275 -116q-92 0 -153 51v-459h-209z" />
<glyph unicode="&#x2000;" horiz-adv-x="1024" />
<glyph unicode="&#x2001;" horiz-adv-x="2048" />
<glyph unicode="&#x2002;" horiz-adv-x="1024" />
<glyph unicode="&#x2003;" horiz-adv-x="2048" />
<glyph unicode="&#x2004;" horiz-adv-x="681" />
<glyph unicode="&#x2005;" horiz-adv-x="512" />
<glyph unicode="&#x2006;" horiz-adv-x="339" />
<glyph unicode="&#x2007;" horiz-adv-x="339" />
<glyph unicode="&#x2008;" horiz-adv-x="256" />
<glyph unicode="&#x2009;" horiz-adv-x="409" />
<glyph unicode="&#x200a;" horiz-adv-x="112" />
<glyph unicode="&#x2010;" horiz-adv-x="872" d="M137 471v195h598v-195h-598z" />
<glyph unicode="&#x2011;" horiz-adv-x="872" d="M137 471v195h598v-195h-598z" />
<glyph unicode="&#x2012;" horiz-adv-x="872" d="M137 471v195h598v-195h-598z" />
<glyph unicode="&#x2013;" d="M104 471v195h883v-195h-883z" />
<glyph unicode="&#x2014;" horiz-adv-x="1990" d="M137 473v199h1716v-199h-1716z" />
<glyph unicode="&#x2018;" horiz-adv-x="548" d="M160 1245v213l229 191v-404h-229z" />
<glyph unicode="&#x2019;" horiz-adv-x="548" d="M160 1057v401h229v-215z" />
<glyph unicode="&#x201a;" horiz-adv-x="546" d="M160 -188v403h229v-215z" />
<glyph unicode="&#x201c;" horiz-adv-x="940" d="M160 1245v213l229 191v-404h-229zM551 1245v213l229 191v-404h-229z" />
<glyph unicode="&#x201d;" horiz-adv-x="940" d="M160 1057v401h229v-215zM551 1057v401h229v-215z" />
<glyph unicode="&#x201e;" horiz-adv-x="942" d="M160 -188v403h229v-215zM551 -188v403h229v-215z" />
<glyph unicode="&#x2022;" horiz-adv-x="1048" d="M190 684q0 139 97.5 236.5t237 97.5t236.5 -97.5t97 -236.5t-97 -236.5t-236.5 -97.5t-237 97.5t-97.5 236.5z" />
<glyph unicode="&#x2026;" horiz-adv-x="1644" d="M160 0v240h239v-240h-239zM702 0v240h240v-240h-240zM1245 0v240h240v-240h-240z" />
<glyph unicode="&#x202f;" horiz-adv-x="409" />
<glyph unicode="&#x2039;" horiz-adv-x="694" d="M76 557l471 469v-252l-219 -217l219 -219v-252z" />
<glyph unicode="&#x203a;" horiz-adv-x="694" d="M147 86v252l222 219l-222 217v252l474 -469z" />
<glyph unicode="&#x205f;" horiz-adv-x="512" />
<glyph unicode="&#x2122;" horiz-adv-x="1808" d="M84 1317v141h625v-141h-236v-733h-156v733h-233zM854 584v874h158l256 -497l258 497h157v-874h-157v571l-185 -367h-145l-184 367v-571h-158z" />
<glyph unicode="&#xe000;" horiz-adv-x="1040" d="M0 1040h1040v-1040h-1040v1040z" />
<glyph unicode="&#xfb01;" horiz-adv-x="1193" d="M76 860v160h119v160q0 121 73.5 204.5t210.5 83.5h129v-178h-92q-113 0 -113 -121v-149h205v-160h-205v-860h-208v860h-119zM811 1278v186h223v-186h-223zM817 0v1020h209v-1020h-209z" />
<glyph unicode="&#xfb02;" horiz-adv-x="1282" d="M76 860v160h119v160q0 121 73.5 204.5t210.5 83.5h129v-178h-92q-113 0 -113 -121v-149h205v-160h-205v-860h-208v860h-119zM813 287v1171h209v-1159q0 -61 25.5 -91t87.5 -30h92v-178h-129q-141 0 -213 81t-72 206z" />
<glyph unicode="&#xfb03;" horiz-adv-x="1884" d="M1503 1243v221h221v-221h-221zM1509 0v1038h209v-1038h-209zM752 860v160h119v160q0 121 73.5 204.5t210.5 83.5h131v-178h-92q-115 0 -114 -121v-149h206v-160h-206v-860h-209v860h-119zM80 860v160h119v160q0 121 73.5 204.5t210.5 83.5h131v-178h-92q-115 0 -114 -121 v-149h206v-160h-206v-860h-209v860h-119z" />
<glyph unicode="&#xfb04;" horiz-adv-x="1980" d="M1503 287v1171h209v-1159q0 -61 25.5 -91t86.5 -30h92v-178h-129q-141 0 -212.5 81t-71.5 206zM752 860v160h119v160q0 121 73.5 204.5t210.5 83.5h131v-178h-92q-115 0 -114 -121v-149h206v-160h-206v-860h-209v860h-119zM80 860v160h119v160q0 121 73.5 204.5 t210.5 83.5h131v-178h-92q-115 0 -114 -121v-149h206v-160h-206v-860h-209v860h-119z" />
</font>
</defs>
</svg>
